<?xml version="1.0" standalone="no"?>
<!DOCTYPE svg PUBLIC "-//W3C//DTD SVG 1.1//EN" "http://www.w3.org/Graphics/SVG/1.1/DTD/svg11.dtd" >
<svg xmlns="http://www.w3.org/2000/svg">
<metadata>
This is a custom SVG webfont generated by Font Squirrel.
Copyright   : FontBit
</metadata>
<defs>
<font id="KalisherRegular" horiz-adv-x="1013" >
<font-face units-per-em="2048" ascent="1505" descent="-543" />
<missing-glyph horiz-adv-x="386" />
<glyph unicode=" "  horiz-adv-x="386" />
<glyph unicode="&#x09;" horiz-adv-x="386" />
<glyph unicode="&#xa0;" horiz-adv-x="386" />
<glyph unicode="!" horiz-adv-x="453" d="M101 85q0 43 27 81h108q23 -38 23 -81q0 -44 -23 -85h-108q-27 41 -27 85zM108 714q0 170 28 306h95q28 -136 28 -306q0 -195 -52 -404h-47q-52 205 -52 404z" />
<glyph unicode="&#x22;" horiz-adv-x="563" d="M80 661q31 177 31 285v137h122v-144q-13 -80 -48 -169q-30 -79 -54 -109h-51zM346 661q30 177 30 285v137h122v-144q-12 -80 -47 -169q-30 -79 -55 -109h-50z" />
<glyph unicode="#" horiz-adv-x="1086" d="M109 207l18 128h154l55 348h-155l21 128h151l31 189h104l-29 -189h281l29 189h104l-29 -189h153l-19 -128h-153l-56 -348h155l-21 -128h-152l-34 -207h-103l33 207h-281l-34 -207h-104l34 207h-153zM384 335h282l55 348h-282z" />
<glyph unicode="$" horiz-adv-x="851" d="M76 714v22q0 191 167 284h133v123h68v-123h207v-132h-207v-292h151q158 -89 158 -269v-23q0 -211 -166 -304h-143v-119h-68v119h-259v138h259v332h-141q-159 89 -159 244zM214 687q0 -91 48 -91h114v292h-114q-48 0 -48 -91v-110zM444 138h122q50 0 50 91v150 q0 91 -50 91h-122v-332z" />
<glyph unicode="%" horiz-adv-x="1410" d="M101 742v14q0 184 143 264h220q142 -80 142 -264v-14q0 -185 -142 -264h-220q-143 79 -143 264zM242 663q0 -67 42 -67h140q42 0 42 67v173q0 66 -42 66h-140q-42 0 -42 -66v-173zM251 0l759 1020h152l-760 -1020h-151zM805 263v15q0 184 143 264h220q142 -80 142 -264 v-15q0 -184 -142 -263h-220q-143 79 -143 263zM944 184q0 -66 45 -66h139q44 0 44 66v172q0 68 -44 68h-139q-45 0 -45 -68v-172z" />
<glyph unicode="&#x26;" horiz-adv-x="1252" d="M121 0v919h714v-619h-130v487h-451v-787h-133zM411 288v335h133v-400q0 -91 51 -91h348q52 0 52 91v696h136v-590q0 -224 -165 -329h-414q-83 60 -108 110q-33 58 -33 178z" />
<glyph unicode="'" horiz-adv-x="297" d="M80 661q31 177 31 285v137h122v-144q-13 -80 -48 -169q-30 -79 -54 -109h-51z" />
<glyph unicode="(" horiz-adv-x="538" d="M121 300v438q0 111 114 264q40 56 198 231l53 -45v-8l-142 -207q-88 -137 -88 -215v-478q0 -79 90 -220l142 -209v-12l-55 -35q-158 174 -198 229q-114 153 -114 267z" />
<glyph unicode=")" horiz-adv-x="528" d="M40 -149l141 209q89 141 89 220v478q0 78 -87 215l-141 207v8l52 45q158 -175 199 -231q114 -153 114 -264v-438q0 -114 -114 -267q-41 -55 -199 -229l-54 35v12z" />
<glyph unicode="*" horiz-adv-x="788" d="M97 931v58q67 11 207 17q-66 109 -103 184l45 37q68 -80 147 -188q67 99 147 188l46 -35q-37 -73 -108 -186q149 -6 215 -17v-58q-70 -10 -215 -16l73 -114q29 -45 47 -81l-45 -35l-75 80q-50 54 -93 113q-60 -89 -151 -193l-46 35q17 36 48 81q17 31 72 114 q-146 6 -211 16z" />
<glyph unicode="+" horiz-adv-x="790" d="M30 445v114h308v313h113v-313h310v-114h-310v-309h-113v309h-308z" />
<glyph unicode="," horiz-adv-x="303" d="M60 -132q31 177 31 266v135h122v-123q-12 -79 -47 -168q-30 -79 -54 -110h-52z" />
<glyph unicode="-" horiz-adv-x="790" d="M109 440v121h573v-121h-573z" />
<glyph unicode="." horiz-adv-x="342" d="M52 95q0 41 35 91h124q31 -46 31 -91t-31 -95h-124q-35 54 -35 95z" />
<glyph unicode="/" horiz-adv-x="716" d="M20 -40l507 1121h119l-506 -1121h-120z" />
<glyph unicode="0" horiz-adv-x="842" d="M85 316v388q0 227 159 316h358q156 -87 156 -316v-388q0 -227 -158 -316h-356q-159 89 -159 316zM223 229q0 -91 48 -91h301q49 0 49 91v562q0 91 -49 91h-301q-48 0 -48 -91v-562z" />
<glyph unicode="1" horiz-adv-x="842" d="M200 868v91l155 45q64 16 133 16h80v-1020h-137v868h-231z" />
<glyph unicode="2" horiz-adv-x="842" d="M97 0v77q0 138 112 229l365 300q24 21 24 75v110q0 91 -49 91h-407v138h450q142 -87 142 -229v-102q0 -122 -132 -227l-391 -314v-10h535v-138h-649z" />
<glyph unicode="3" horiz-adv-x="842" d="M95 0v138h466q49 0 49 91v150q0 91 -51 91h-375v132h339q49 0 49 91v98q0 91 -47 91h-401v138h441q141 -85 141 -229v-41q0 -115 -91 -197q68 -52 95 -93q38 -56 38 -144v-40q0 -187 -160 -276h-493z" />
<glyph unicode="4" horiz-adv-x="842" d="M49 253v74q0 111 137 290l313 403h168v-633h128v-134h-128v-253h-131v253h-487zM156 387h380v497z" />
<glyph unicode="5" horiz-adv-x="842" d="M93 0v138h468q49 0 49 91v164q0 91 -49 91h-453v536h579v-138h-443v-265h348q158 -90 158 -284v-23q0 -217 -166 -310h-491z" />
<glyph unicode="6" horiz-adv-x="842" d="M74 316v410q0 75 37 158q42 95 109 136h456v-138h-424q-48 0 -48 -91v-219q20 22 58 55h362q145 -95 145 -300v-19q0 -215 -166 -308h-368q-161 89 -161 316zM206 229q0 -91 48 -91h327q49 0 49 91v183q0 91 -49 91h-375v-274z" />
<glyph unicode="7" horiz-adv-x="842" d="M87 884v138h669v-97q0 -126 -71 -270l-339 -687l-127 69l433 831l-4 16h-561z" />
<glyph unicode="8" horiz-adv-x="842" d="M64 278v14q0 148 142 255q-99 84 -99 201v35q0 150 143 237h343q142 -87 142 -237v-35q0 -123 -99 -201q141 -107 141 -255v-14q0 -189 -157 -278h-398q-158 89 -158 278zM202 225q0 -91 48 -91h341q49 0 49 91v164q0 91 -51 91h-337q-50 0 -50 -91v-164zM233 695 q0 -91 48 -91h279q49 0 49 91v104q0 31 -14 61t-37 30h-275q-23 0 -36.5 -30t-13.5 -61v-104z" />
<glyph unicode="9" horiz-adv-x="842" d="M74 685v19q0 101 41.5 187t114.5 129h388q149 -83 149 -296v-455q0 -74 -34 -145q-39 -83 -105 -124h-483v138h442q22 0 36.5 30.5t14.5 60.5v219q-22 -22 -61 -55h-367q-136 87 -136 292zM212 608q0 -91 48 -91h376v274q0 91 -49 91h-327q-48 0 -48 -91v-183z" />
<glyph unicode=":" horiz-adv-x="342" d="M52 217q0 40 35 91h124q31 -47 31 -91q0 -45 -31 -95h-124q-35 54 -35 95zM52 714q0 40 35 91h124q31 -47 31 -91q0 -45 -31 -95h-124q-35 54 -35 95z" />
<glyph unicode=";" horiz-adv-x="303" d="M52 714q0 40 35 91h124q31 -47 31 -91q0 -45 -31 -95h-124q-35 54 -35 95zM60 -91q31 176 31 265v136h122v-124q-12 -78 -47 -168q-30 -78 -54 -109h-52z" />
<glyph unicode="&#x3c;" horiz-adv-x="790" d="M68 440v121l594 325v-122l-507 -263l507 -263v-122z" />
<glyph unicode="=" horiz-adv-x="790" d="M109 257v122h573v-122h-573zM109 623v121h573v-121h-573z" />
<glyph unicode="&#x3e;" horiz-adv-x="790" d="M130 116v122l507 263l-507 263v122l594 -325v-121z" />
<glyph unicode="?" horiz-adv-x="806" d="M119 882v138h397q124 -76 124 -229v-61q0 -111 -130 -209l-107 -81q-23 -16 -29 -63l-12 -67h-102v140q21 59 134 144l75 56q49 37 49 72v110q0 50 -51 50h-348zM241 85q0 43 25 81h100q26 -38 26 -81q0 -44 -26 -85h-100q-25 41 -25 85z" />
<glyph unicode="@" horiz-adv-x="1867" d="M104 424q0 261 121 484q123 230 345 357t470 127q200 0 359 -78q174 -86 261 -251.5t87 -348.5q0 -168 -65 -327q-69 -171 -191 -269q-128 -103 -290 -103q-152 0 -179 120q16 63 55 103q-243 -224 -400 -224q-84 0 -134 76q-45 66 -45 155q0 154 103 341q85 155 215 293 q106 72 175 72q30 0 52 -12q139 0 200 -84l8 95l135 -23l-100 -389q-71 -278 -71 -335q0 -19 5 -29q-6 -20 -6 -32q0 -28 24 -28q17 0 45 13q20 -9 40 -9q73 0 150 120q91 39 143 155q72 162 72 339q-33 139 -104 306q-90 132 -243 209q-148 76 -311 76q-230 -64 -388 -159 q-221 -75 -262 -269q-155 -214 -155 -407q0 -35 5 -68q-1 -16 -1 -32q0 -217 104 -372q60 -215 269 -254q139 -83 356 -110q55 -7 100 -7q229 0 391 149q209 104 254 396l123 -36q-94 -285 -327 -447q-229 -160 -532 -160q-238 0 -435 109q-203 113 -315.5 317.5 t-112.5 450.5zM646 290q19 -29 30 -94q29 24 49 24q22 0 35 -30q111 56 246 190q39 87 119 143q45 144 45 242q0 60 -32 99q-16 22 -43 22q-28 0 -65 -23h-8q-75 0 -127 -134q-110 -13 -190 -209q-59 -144 -59 -230z" />
<glyph unicode="A" horiz-adv-x="1464" d="M16 0v37q84 14 95 66q63 19 126 165l472 1105l43 -27l459 -1090q47 -112 104 -137q30 -76 126 -82v-37h-529l38 32q72 31 98 87q0 43 -39 137l-81 193h-520l-91 -211q-34 -79 -34 -117q0 -73 113 -81l43 -40h-423zM439 523l424 16l-174 522z" />
<glyph unicode="B" horiz-adv-x="1352" d="M79 63l5 -26q85 0 121 53q9 53 23 148v867q0 125 -29 157q-39 44 -115 44l43 -7l-48 39l535 4h14q323 0 461 -137q90 -90 90 -221q0 -221 -242 -299q139 -30 208 -95q96 -91 96 -223q0 -113 -64 -199t-172 -125q-116 -43 -312 -43h-26l-572 8zM396 158q137 -88 248 -88 q150 0 250 64q118 75 118 216q0 187 -181 265q-96 41 -238 41q-127 0 -175 -9zM418 739h8q64 0 168 29q67 -11 123 -11q160 0 217 94q38 65 38 141q0 144 -122 220q-103 64 -254 64q-99 0 -178 -22v-515z" />
<glyph unicode="C" horiz-adv-x="1352" d="M73 650q0 197 85 362q90 173 254 269q157 92 344 92q147 0 287 -71q43 -22 60 -22q23 5 23 31t-25 75l120 -13l30 -456l-63 2q-83 383 -416 383q-292 0 -411 -284q-62 -150 -62 -370q0 -378 235 -520q87 -27 211 -27q30 0 63 2q54 -18 105 -18q81 0 149 48 q78 113 189 202l72 -18q-236 -348 -596 -348q-334 0 -517 248q-137 184 -137 433z" />
<glyph unicode="D" horiz-adv-x="1464" d="M63 1362l518 -20q293 -10 403 -48q196 -66 303 -240q100 -161 100 -376q0 -281 -170 -468q-191 -210 -561 -210h-21l-532 8l-16 -8l-2 37q85 0 121 54q22 33 22 147v867q0 126 -101 138q11 20 11 31q0 15 -19 15q-12 0 -32 -6zM412 1228l6 -1131q14 1 43 1q57 0 173 -3 h18q244 0 379 158q130 153 130 415q0 265 -147 409q-163 159 -388 159q-29 2 -63 2q-67 0 -151 -10z" />
<glyph unicode="E" horiz-adv-x="1238" d="M71 1299v39l997 -11l15 -294l-69 5q-16 87 -32 126q-32 39 -206 87h-372l24 -483l283 -45q190 0 190 103q0 15 -6 29l71 32l32 -356l-87 -32q-3 50 -17 77q-39 75 -154 75q-17 0 -29 -1l-291 -24l-4 -418v-41q0 -33 1 -35q36 -25 58 -37q11 -6 26 -6q24 0 61 14h182 q56 8 94 8q37 0 57 -8q71 24 124 33q42 62 66 181l95 -16l-95 -317h-990l-16 79l2 -42q47 0 85 82q18 -16 31 -16q33 0 33 164v10l-4 832q-28 118 -28 147q0 8 2 10q-35 40 -119 40z" />
<glyph unicode="F" horiz-adv-x="1127" d="M32 8l39 55l9 -26q55 50 102 50q0 63 43 151v867q0 102 -13 134q-27 67 -132 67l-9 -23l-8 63l951 -8l30 -291l-78 -2q-24 143 -119 191q-31 -16 -150 -16h-285l16 -412l231 -66q70 34 132 46q32 39 44 138h36v-455h-36q-2 132 -74 171q-32 17 -102 17l-223 -41l-21 -380 q19 -52 19 -92q0 -23 -6 -43q4 -11 18 -11q18 0 53 19q63 -40 61 -74h49v-37z" />
<glyph unicode="G" horiz-adv-x="1464" d="M63 643q-1 16 -1 32q0 186 86 307q163 396 499 396q61 0 127 -13q130 0 303 -64q57 -21 74 -21q29 0 29 25q0 14 -8 33l79 8l20 -405l-83 9q-4 150 -87 230q-95 67 -218 67q-51 0 -107 -11q-67 25 -126 25q-159 0 -246 -192q-113 -146 -113 -384q0 -174 63 -327 q113 -120 208 -184l222 -55q14 -1 28 -1q123 0 194 64l78 309q0 75 -6 102l-96 41q1 8 1 14q0 41 -33 49l32 79l444 -8l-48 -95l25 14q-52 -65 -76 -65q-14 0 -20 20q-17 -24 -17 -74q0 -35 9 -85l-103 -380q-111 -190 -412 -214q-432 32 -602 309q-109 177 -119 445z" />
<glyph unicode="H" horiz-adv-x="1464" d="M27 0v37l21 42q26 -8 45 -8q39 0 50 32q55 47 71 158l5 843v14q0 97 -13 121q-48 4 -48 20q-79 0 -84 47l-42 -55v103l570 -12v-36h-49q-52 0 -85 -28q-22 -19 -55 -74q-4 -23 -4 -100l42 -336h571l11 336v29q0 73 -13 106q-62 12 -132 67h-47v36h574v-36h-48 q-81 0 -139 -118q-1 -1 -1 -3q0 -15 24 -92l-28 -855v-29q0 -72 13 -90q49 -28 49 -46q0 -7 -9 -13q43 -23 91 -23h48v-37h-552l-22 37l46 3h10q76 0 111 45q25 32 25 153v408h-624v-408q0 -102 35 -135q5 -36 60 -36q19 0 42 4l56 -34v-45z" />
<glyph unicode="I" horiz-adv-x="675" d="M40 4l3 33h47q83 0 92 66q40 44 53 135v867q0 102 -13 134q-10 26 -68 28q-26 21 -67 32l-43 12v47l578 8l-4 -60h-49q-58 -35 -86 -86q-47 -24 -58 -115l19 -859q22 -58 22 -103q0 -17 -3 -32q24 -48 106 -74l41 42l8 -79z" />
<glyph unicode="J" horiz-adv-x="789" d="M56 159q0 50 40 50q10 0 23 -3q20 6 37 6q42 0 65 -33q15 -21 44 -68q15 -17 24 -17q8 0 12 13q51 0 55 87l39 911q1 18 1 33q0 67 -14 101q-49 36 -133 44l-47 23l-12 76h594l-7 -76h-48q-80 -15 -120 -49q-24 -30 -24 -152v-657q0 -282 -141 -420q-88 -59 -202 -59 q-77 0 -134 37q-49 53 -49 121q-3 19 -3 32z" />
<glyph unicode="K" horiz-adv-x="1464" d="M46 1298l2 52l566 -4l-4 -55l-44 -20q-9 2 -18 2q-40 0 -104 -89q-16 -10 -16 -87v-411q38 37 122 154q309 243 357 332q8 44 16 71q-23 12 -64 48l-31 28l4 47l483 4l2 -72q-74 -11 -173 -59q-39 -39 -114 -122q-96 -79 -171 -167l-182 -213l436 -492q179 -202 380 -216 v-37h-639v37q108 0 108 62q0 43 -71 113l-463 458v-432q0 -102 13 -135q24 -42 82 -42q13 0 27 2l56 -7l4 -56h-562l7 36l24 23q91 8 135 26q24 31 24 153v867q-12 99 -13 136q-25 9 -67 38q-22 16 -65 27h-47z" />
<glyph unicode="L" horiz-adv-x="1238" d="M28 1346h621l-7 -95q-68 19 -113 19q-72 0 -93 -44q-9 -18 -16 -152l-44 -844q16 -68 60 -112q27 -23 83 -31l190 16q131 -4 196 -13q179 43 220 231l95 -44l-144 -285h-1039v37h50q85 0 122 55q21 32 21 147v866q0 126 -32 174q-50 2 -99 8l-67 8zM1133 55z" />
<glyph unicode="M" horiz-adv-x="1802" d="M36 1350l384 8l435 -1041l527 1049l364 -20l-8 -43l-24 -1q-86 -23 -122 -52q-22 -31 -22 -144v-877q0 -124 28 -155q37 -42 97 -42h55l-8 -44l-542 12v44l47 15q26 -9 48 -9q58 0 76 66q9 32 9 113v897l-497 -1094l-55 -16l-468 1041l-49 -828q18 -114 27 -155 q36 -41 115 -41h48v-37h-450l8 52l52 -4q9 -2 18 -2q40 0 57 45q20 28 38 142l-26 876q6 76 6 114v16q-38 52 -164 56z" />
<glyph unicode="N" horiz-adv-x="1464" d="M4 1311l8 35l317 12l817 -1026v774q-17 110 -27 154h-3q-41 0 -110 23h-56l6 55h468l2 -59h-44q-77 0 -127 -29q-21 -31 -21 -144v-1132h-36l-885 1081v-826q0 -125 27 -155q34 -38 84 -38h8l19 4l-11 -32l-404 -12l39 48l7 -11q86 0 122 51q22 32 22 145v933 q-51 60 -78 81q-38 30 -99 50q-28 9 -45 18z" />
<glyph unicode="O" horiz-adv-x="1464" d="M71 676q0 320 218 522q189 175 453 175q296 0 474 -202q170 -192 170 -492q0 -309 -174 -505q-181 -205 -486 -205q-307 0 -485 203q-170 193 -170 504zM298 672q0 -228 11 -229q5 0 12 44q205 -416 349 -416q14 0 27 4q22 -4 44 -4q234 0 419 436q0 -37 -1 -37v174 q0 176 -18 261q-11 56 -54 149q-99 216 -322 216q-25 0 -52 -3q-28 4 -54 4q-134 0 -225 -112q-136 -166 -136 -487z" />
<glyph unicode="P" horiz-adv-x="1127" d="M34 0v37h50q85 0 122 55q20 31 20 146v867q0 127 -27 157q-39 44 -115 44h-50v36h492q158 0 251 -26q125 -36 200 -125q79 -93 79 -220q0 -181 -119 -279q-110 -91 -295 -91q-98 0 -226 28v-391q0 -126 28 -158q38 -43 113 -43h52v-37h-575zM416 685q105 -20 162 -20 q114 0 185 88q68 83 68 198q0 197 -137 275q-64 36 -149 36q-50 0 -129 -19v-558z" />
<glyph unicode="Q" horiz-adv-x="1464" d="M71 674q0 311 177 502q183 197 491 197q298 0 478 -205q170 -195 170 -498q0 -241 -132 -426q-133 -191 -362 -259q189 -327 485 -350v-32q-300 11 -586 193q-140 89 -241 189q-145 59 -225 122q-255 200 -255 567zM298 674q0 -326 141 -502q123 -49 288 -135 q230 0 343 199q90 158 90 409q0 450 -222 593q-94 59 -211 59q-233 0 -343 -206q-86 -161 -86 -417z" />
<glyph unicode="R" horiz-adv-x="1352" d="M59 -4l32 40l-6 1q85 0 122 55q21 32 21 146v867q0 128 -28 157q-21 22 -38 33l4 -4l-31 59l389 -8q198 -4 263 -17q132 -28 210 -110q85 -88 85 -218q0 -270 -331 -344l278 -385q84 -117 142 -160q78 -58 199 -71v-37h-358l-455 628q-50 -2 -82 -2q-27 0 -58 2v-390 q0 -126 28 -158q38 -43 112 -43h53v-37zM401 1237l39 -524l-11 -35q18 -1 27 -1q162 0 265 65q122 78 122 230q0 133 -76.5 208t-210.5 75q-57 0 -155 -18z" />
<glyph unicode="S" horiz-adv-x="1127" d="M123 1028q0 160 119 259q110 94 274 94q108 0 226 -52q32 -14 53 -14q16 0 25 8q15 -5 26 -5q28 0 33 32l60 -4l-4 -396l-52 32q-28 185 -202 242q-43 47 -97 47q-35 0 -73 -20q-35 21 -66 21q-47 0 -89 -44q-76 -42 -76 -132q0 -60 43 -112q61 -73 292 -198 q165 -89 204 -116q196 -134 196 -320q0 -176 -126 -278q-117 -95 -297 -95q-73 0 -110 9l-137 34q-49 12 -112 33q-50 0 -55 -49l-43 8l4 392l27 12q29 -108 65 -174q47 -90 144 -140q90 -48 196 -48q109 0 183 55q85 60 85 165q0 109 -112 194q-70 53 -229 140 q-154 84 -227 140q-148 117 -148 280z" />
<glyph unicode="T" horiz-adv-x="1238" d="M59 1156l18 186h1096l15 -209h-67q4 -5 5 -6l1 1q-1 6 -6 18q-72 66 -216 112l-188 -26l-1 -999q-11 -43 -11 -75q0 -58 37 -80q38 -27 116 -41l13 -1l8 -32l-527 -8l4 44l27 -3q85 0 121 51q31 18 31 73q0 31 -9 72l-15 1003l-143 3h-142q-101 -33 -101 -79q0 -6 2 -12z " />
<glyph unicode="U" horiz-adv-x="1464" d="M12 1315l16 79h570l-7 -88h-51q-85 -11 -119 -53q-61 -25 -73 -136l-3 -594q23 -238 117 -340q73 -105 233 -105q17 0 34 1q15 -1 30 -1q111 0 195 53q115 43 143 154q40 71 63 285v535q0 126 -51 154q-12 27 -62 27q-16 0 -37 -3h-48l16 99l463 -16l1 -60h-50 q-78 0 -109 -59q-12 -29 -12 -142v-555q-22 -186 -51 -281q-94 -301 -487 -301q-392 0 -495 281q-32 243 -32 331v525q0 104 -22 143q-32 58 -123 58z" />
<glyph unicode="V" horiz-adv-x="1464" d="M18 1306v36h548v-36q-148 -14 -148 -90q0 -50 45 -155l342 -787l317 777q46 114 46 160q0 70 -126 92l-16 3v36h413v-36q-72 -13 -107 -46q-52 -46 -94 -148l-468 -1143h-36l-503 1158q-40 90 -55 109q-49 61 -158 70z" />
<glyph unicode="W" horiz-adv-x="1913" d="M111 1295l8 51l384 -8l33 -36l-37 -27q-34 7 -43 7q-52 -1 -52 -61q0 -22 43 -160l234 -740l182 629v201q-40 117 -127 145q-3 3 12 19l4 47h396v-55l-4 -44q-27 8 -50 8q-58 0 -84 -51q4 -52 91 -182l222 -741l257 760q13 39 44 159q0 48 -20 55q-35 12 -56 4l-8 79h341 l-12 -55q-59 -32 -83 -91q-19 -20 -63 -159l-353 -1085l-84 1l-264 863l-346 -863h-35l-399 1115q-42 117 -57 148q-32 67 -74 67z" />
<glyph unicode="X" horiz-adv-x="1464" d="M15 0v37q49 5 87 20q125 53 244 203l316 400l-264 387q-88 129 -147 179q-90 76 -209 80v36h620v-36q-137 -5 -137 -76q0 -36 47 -107l206 -308l239 302q60 76 60 114q0 48 -49 66q-22 8 -94 9v36h476v-36q-58 -3 -92 -18q-96 -41 -224 -204l-266 -341l288 -429 q97 -146 131 -181q87 -90 193 -96v-37h-576v37q45 1 66 6q67 15 67 70q0 23 -9 45q-5 12 -54 88l-228 344l-281 -360q-63 -81 -63 -117q0 -71 129 -76v-37h-476z" />
<glyph unicode="Y" horiz-adv-x="1464" d="M48 1303v39h419l8 -23l4 -4q21 -9 -14 -29q-42 -24 -42 -67q0 -20 60 -129l222 -401l253 388q99 91 103 127q-4 55 -43 75q-14 27 -20 28l-4 35h356l8 -35q-46 -1 -130 -89q-48 -50 -100 -139l-300 -509l-24 -337q24 -118 28 -155q37 -41 118 -41h44v-37h-570v37h47 q85 0 121 51q-10 27 -26 138l32 313l-352 574q-50 80 -77 110q-31 34 -109 73q-4 2 -12 7zM1335 1307z" />
<glyph unicode="Z" horiz-adv-x="1238" d="M10 -8v37l841 1214h-407q-183 0 -206 -71q-4 -67 -28 -103l-67 8v277h946l-824 -1223h567q44 -11 77 -11q63 0 89 38q59 44 75 163h95v-317z" />
<glyph unicode="[" horiz-adv-x="569" d="M142 -257v1547h388v-118h-273v-1312h273v-117h-388z" />
<glyph unicode="\" horiz-adv-x="559" d="M0 1182l182 2l368 -1188h-174z" />
<glyph unicode="]" horiz-adv-x="569" d="M40 -140h271v1312h-271v118h387v-1547h-387v117z" />
<glyph unicode="^" horiz-adv-x="780" d="M27 432l314 694h105l314 -694h-158l-206 503l-230 -503h-139z" />
<glyph unicode="_" horiz-adv-x="1021" d="M-8 -127h1034l6 -128h-1032z" />
<glyph unicode="`" horiz-adv-x="675" d="M117 1376h221l105 -341l-55 -9z" />
<glyph unicode="a" horiz-adv-x="899" d="M72 215q0 140 172 241q101 60 333 145v36q0 236 -168 236q-53 0 -93 -29q-46 -31 -44 -82l2 -57v-6q0 -89 -84 -89q-83 0 -83 96q0 112 116 175q95 53 216 53q226 0 284 -137q18 -43 18 -174v-308q0 -179 21 -198q11 -10 26 -10q16 0 28 7q20 12 80 72v-55 q-111 -149 -212 -149q-105 0 -107 149q-140 -109 -175 -125q-54 -25 -114 -25q-99 0 -158 69q-58 65 -58 165zM239 261q0 -64 37 -113q41 -52 103 -52q75 0 198 99v346q-144 -58 -193 -85q-145 -81 -145 -195z" />
<glyph unicode="b" d="M-4 1297l272 111h45v-658q132 184 284 184q166 0 263 -146q84 -126 84 -300q0 -241 -160 -389q-138 -127 -307 -127q-157 0 -328 115v940q0 213 -30 238q-16 13 -40 13q-28 0 -69 -16zM313 145q102 -100 215 -100q123 0 192 139q53 110 53 248q0 135 -57 237 q-71 124 -197 124q-53 0 -105 -27q-40 -20 -101 -79v-542z" />
<glyph unicode="c" horiz-adv-x="899" d="M69 452q0 208 111 340q118 142 322 142q105 0 198 -56q108 -64 108 -162q0 -84 -92 -84q-60 0 -88 37q-7 9 -23 81q-26 117 -136 117q-99 0 -159 -73q-80 -97 -80 -256q0 -154 69 -272q82 -139 226 -139q96 0 174 66q54 47 106 165l29 -13q-32 -157 -125 -258 q-105 -115 -256 -115q-181 0 -289 155q-95 136 -95 325z" />
<glyph unicode="d" d="M67 416q0 199 118 352q128 167 321 167q120 0 198 -77v168q0 214 -31 239q-16 13 -39 13q-26 0 -69 -16l-13 35l271 111h44v-1049q0 -216 32 -243q16 -14 38 -14q26 0 71 17l11 -35l-270 -112h-45v130q-124 -130 -266 -130q-169 0 -275 142q-96 129 -96 302zM248 494 q0 -151 64 -269q77 -144 218 -144q90 0 174 90v468q0 141 -114 206q-48 28 -96 28q-87 0 -155 -78q-91 -103 -91 -301z" />
<glyph unicode="e" horiz-adv-x="899" d="M75 442q0 213 100 345q111 148 319 148q160 0 255 -106q93 -102 93 -264h-626q-1 -168 78 -290q92 -141 252 -141q185 0 266 216l30 -19q-22 -150 -120 -250q-105 -109 -251 -109q-187 0 -297 146q-99 131 -99 324zM216 623h420q-5 87 -21 122q-53 119 -176 119 q-96 0 -158 -75q-55 -66 -65 -166z" />
<glyph unicode="f" horiz-adv-x="675" d="M78 836v71h176v59q0 268 178 382q89 58 201 58q104 0 191 -68q57 -44 57 -100q0 -29 -25.5 -55.5t-55.5 -26.5q-6 0 -107 89.5t-139 89.5q-96 0 -122 -99q-14 -52 -14 -264v-65h233v-71h-233v-596q0 -127 28 -161q36 -43 98 -43h82v-36h-542v36h41q91 0 118 73 q11 33 11 131v596h-176z" />
<glyph unicode="g" d="M60 -248q0 49 81 149q7 10 101 107q-94 56 -94 110q0 80 158 213q-172 84 -172 274q0 151 107 242q100 87 254 87q130 0 225 -64h192q42 0 49 -3q16 -7 16 -39q0 -38 -15 -44q-8 -3 -50 -3h-118q55 -71 55 -182q0 -144 -109 -229q-100 -78 -248 -78q-67 0 -138 20 q-74 -64 -74 -114q0 -44 80 -55q29 -4 139 -7q205 -5 264 -14q89 -13 143 -64q59 -55 59 -141q0 -112 -105 -210q-154 -145 -403 -145q-192 0 -322 87q-75 48 -75 103zM202 -174q0 -48 57 -83q99 -62 286 -62q122 0 217 39q131 53 131 158q0 69 -102 89q-32 7 -152 10 q-200 6 -343 23q-94 -102 -94 -174zM306 648q0 -156 67 -242q52 -65 131 -65q172 0 172 233q0 158 -68 247q-51 65 -130 65q-91 0 -135 -77q-37 -63 -37 -161z" />
<glyph unicode="h" d="M13 1297l271 111h46v-664q82 91 133 128q84 62 170 62q163 0 214 -177q19 -64 19 -231v-321q0 -85 14 -118q22 -51 121 -51v-36h-446v36h21q104 0 123 76q3 12 3 93v321q0 112 -4 141q-20 147 -142 147q-105 0 -226 -130v-479q0 -69 3 -87q13 -82 143 -82v-36h-449v36 q59 0 95 18q43 23 43 151v821q0 214 -29 239q-15 13 -42 13q-21 0 -67 -16z" />
<glyph unicode="i" horiz-adv-x="563" d="M59 823l274 111h43v-729q0 -128 50 -155q24 -14 88 -14v-36h-441v36q101 0 126 55q13 29 13 114v349q0 149 -9 191q-12 57 -62 57q-28 0 -68 -15zM193 1308q0 42 29 71t72 29q42 0 71 -29.5t29 -70.5q0 -42 -29 -71.5t-71 -29.5t-71.5 29.5t-29.5 71.5z" />
<glyph unicode="j" horiz-adv-x="563" d="M-154 -338q0 34 23.5 59.5t57.5 25.5q23 0 52 -13q15 -7 71 -55q44 -38 75 -38q60 0 80 79q11 43 11 187v645q0 150 -9 192q-12 58 -62 58q-28 0 -68 -15l-14 36l274 111h42v-913q0 -198 -77 -317q-91 -142 -279 -142q-60 0 -110 21q-67 28 -67 79zM193 1307q0 42 29 72 t72 30t72.5 -30t29.5 -72q0 -43 -29.5 -72t-72.5 -29q-42 0 -71.5 29.5t-29.5 71.5z" />
<glyph unicode="k" d="M17 0v36q112 0 135 50q15 32 15 113v826q0 216 -29 241q-15 13 -42 13q-21 0 -62 -17l-17 35l269 111h46v-903l230 211q73 66 85 85q8 12 8 24q0 46 -70 50v32h394v-32q-142 -4 -253 -106l-233 -215l233 -294q93 -117 130 -154q48 -47 84 -60q24 -10 86 -10v-36h-441v36 q64 2 64 40q0 23 -39 73l-278 356v-301q0 -131 47 -155q23 -12 99 -13v-36h-461z" />
<glyph unicode="l" horiz-adv-x="563" d="M60 1297l271 111h44v-1203q0 -127 51 -155q26 -14 96 -14v-36h-445v36q97 0 121 55q13 30 13 114v824q0 212 -29 236q-15 13 -39 13q-26 0 -66 -16z" />
<glyph unicode="m" horiz-adv-x="1577" d="M17 823l273 111h43v-193q98 98 116 113q95 80 198 80q187 0 229 -193q80 93 138 133q84 60 179 60q155 0 217 -159q22 -56 22 -180v-390q0 -87 12 -117q23 -52 124 -52v-36h-447v36h18q104 0 124 73q4 15 4 96v390q0 112 -27 156q-37 64 -123 64q-103 0 -234 -124l-2 -11 l2 -42v-433q0 -69 3 -87q14 -82 145 -82v-36h-459v36q121 0 143 71q5 16 5 98v390q0 112 -33 159q-43 64 -122 64q-52 0 -106 -29q-83 -45 -126 -98v-486q0 -128 49 -155q25 -14 98 -14v-36h-448v36q100 0 124 56q13 29 13 113v346q0 151 -9 193q-12 58 -62 58 q-28 0 -66 -15z" />
<glyph unicode="n" d="M12 823l273 111h43v-192q159 192 304 192q153 0 212 -160q22 -58 22 -182v-387q0 -128 50 -155q24 -14 89 -14v-36h-449v36h19q104 0 124 76q4 15 4 93v371q0 236 -141 236q-117 0 -234 -129v-478q0 -91 11 -114q26 -55 136 -55v-36h-448v36h20q76 0 101 48q16 34 16 121 v337q0 222 -29 247q-15 13 -42 13q-28 0 -66 -15z" />
<glyph unicode="o" d="M68 445q0 128 57 243q59 123 164 184.5t218 61.5q206 0 331 -157q105 -133 105 -307q0 -130 -54 -244q-58 -123 -162.5 -188.5t-230.5 -65.5q-205 0 -326 164q-102 137 -102 309zM252 528q0 -169 61 -306q78 -179 226 -179q220 0 220 351q0 241 -104 380q-71 95 -179 95 q-132 0 -191 -140q-33 -79 -33 -201z" />
<glyph unicode="p" d="M-6 -397h25q88 0 114 46q18 32 18 133v858q0 124 -32 147q-17 12 -48 12q-23 0 -60 -14l-12 32l279 113h38v-212q127 216 290 216q136 0 228 -107q111 -131 111 -341q0 -235 -134 -388q-111 -126 -279 -126q-74 0 -127 21q-41 16 -89 59v-276q0 -73 3 -89q9 -48 48 -69 q29 -15 102 -15v-37h-475v37zM316 321q0 -109 9 -145q17 -67 76 -107q55 -37 128 -37q99 0 160 77q80 101 80 284q0 208 -91 320q-63 77 -150 77q-48 0 -94 -24q-36 -18 -118 -107v-338z" />
<glyph unicode="q" d="M67 413q0 223 120 367q128 154 347 154q113 0 189 -64q57 28 110 64h33v-1167q0 -63 4 -84q9 -46 46 -66q25 -14 98 -14v-37h-458v37h19q93 0 116 54q12 29 12 110v390q-157 -185 -297 -185q-159 0 -256 147q-83 128 -83 294zM234 485q0 -148 61 -250q74 -123 214 -123 q110 0 194 108v425q0 137 -88 190q-50 29 -112 29q-141 0 -212 -125q-57 -101 -57 -254z" />
<glyph unicode="r" horiz-adv-x="675" d="M13 823l274 111h42v-204q114 204 233 204q50 0 88 -31t38 -79q0 -38 -24.5 -65t-62.5 -27q-20 0 -81 34l-61 34q-16 0 -38 -20q-46 -41 -92 -134v-434q0 -93 31 -133q36 -43 127 -43v-36h-464v36q117 0 137 72q5 17 5 96v351q0 122 1 122v-2q-5 92 -30 113q-17 14 -44 14 q-31 0 -69 -15z" />
<glyph unicode="s" horiz-adv-x="789" d="M99 671q0 117 80 190q77 73 195 73q54 0 130 -23q50 -15 67 -15q27 0 46 38h32v-309h-32q-32 120 -77 176q-61 74 -170 74q-57 0 -103 -30q-51 -33 -51 -88q0 -105 156 -181l145 -70q201 -98 201 -258q0 -129 -89 -204q-84 -72 -214 -72q-85 0 -190 30q-35 10 -54 10 q-23 0 -35 -26h-33v324h33q23 -120 91 -194q76 -85 190 -85q63 0 107 36q47 39 47 100q0 82 -84 146q-41 31 -162 90q-107 52 -156 99q-70 68 -70 169z" />
<glyph unicode="t" horiz-adv-x="563" d="M20 838v32q122 49 213 197q19 32 63 138h31v-298h212v-69h-212v-589q0 -149 90 -149q77 0 111 80h38q-69 -195 -228 -195q-110 0 -154 98q-21 47 -21 145v610h-143z" />
<glyph unicode="u" d="M2 870v37h318v-607q0 -206 150 -206q98 0 225 129v514q0 80 -34 107q-29 24 -112 26v37h309v-550q0 -214 32 -241q16 -14 38 -14q30 0 69 17l14 -35l-271 -112h-45v192q-88 -96 -136 -130q-84 -62 -172 -62q-160 0 -210 158q-22 69 -22 196v405q0 101 -54 127 q-24 12 -89 12h-10z" />
<glyph unicode="v" d="M17 870v37h427v-37h-28q-79 0 -79 -69q0 -33 20 -82l211 -501l212 520q23 55 23 84q0 14 -8 22q-19 26 -96 26v37h296v-37q-52 -4 -71 -21q-33 -27 -63 -99l-321 -778h-41l-324 766q-36 87 -92 115q-17 9 -66 17z" />
<glyph unicode="w" horiz-adv-x="1464" d="M13 870v37h380v-37q-85 -6 -85 -61q0 -29 17 -74l194 -522l195 425l-52 133q-21 58 -62 82q-23 14 -81 17v37h431v-37q-120 -5 -120 -76q0 -21 8 -41l205 -520l192 502q19 52 19 85q0 47 -95 50v37h286v-37q-86 -13 -126 -117l-303 -781h-41l-227 579l-264 -579h-37 l-291 763q-24 64 -50 91q-31 30 -93 44z" />
<glyph unicode="x" d="M27 870v37h426v-37q-73 0 -73 -50q0 -24 35 -74q17 -23 32 -49l65 -103l74 103q71 99 71 124q0 49 -71 49v37h307v-37q-49 -3 -84 -27q-47 -31 -133 -146l-124 -165l226 -325q65 -94 86 -115q53 -52 125 -56v-36h-428v36q88 0 88 56q0 22 -63 115l-133 194l-145 -194 q-67 -90 -67 -107q0 -60 89 -64v-36h-296v36q36 5 62 24q39 30 127 147l190 252l-172 250q-60 86 -88 112q-53 49 -126 49z" />
<glyph unicode="y" d="M12 870v37h423v-37h-21q-89 0 -89 -67q0 -40 32 -107l221 -457l203 501q17 41 17 80q0 32 -32 44q-16 6 -59 6v37h295v-37q-62 -7 -100 -60q-6 -9 -34 -76l-369 -905q-44 -107 -118 -179q-88 -88 -189 -88q-52 0 -91 29q-43 32 -43 82q0 92 102 92q32 0 89 -21 q39 -15 50 -15q74 0 136 149l64 158l-326 684q-14 29 -47 76q-26 36 -41 46q-22 16 -73 28z" />
<glyph unicode="z" horiz-adv-x="899" d="M41 0v36l602 802h-297q-77 0 -99 -5q-98 -21 -106 -178h-40l6 252h760v-37l-608 -804h331q82 0 115 9q58 16 86 70q16 30 27 133h33l-10 -278h-800z" />
<glyph unicode="{" horiz-adv-x="656" d="M40 497v33q182 66 182 211v240q0 118 40 189q33 57 116 120h238v-118h-197q-27 0 -46.5 -31.5t-19.5 -80.5v-300q0 -73 -21 -116q-35 -66 -136 -125v-10q111 -69 142 -136q15 -36 15 -114v-287q0 -112 66 -112h197v-117h-238q-83 63 -116 119q-40 72 -40 188v230 q0 85 -47 136q-40 42 -135 81z" />
<glyph unicode="|" horiz-adv-x="338" d="M121 -257v1547h95v-1547h-95z" />
<glyph unicode="}" horiz-adv-x="656" d="M40 -140h197q64 0 64 112v287q0 78 17 114q29 67 141 136v10q-102 59 -135 125q-23 43 -23 116v300q0 49 -19.5 80.5t-44.5 31.5h-197v118h237q83 -63 115 -120q41 -71 41 -189v-240q0 -145 183 -211v-33q-96 -39 -137 -81q-46 -51 -46 -136v-230q0 -116 -41 -188 q-32 -56 -115 -119h-237v117z" />
<glyph unicode="~" horiz-adv-x="1100" d="M20 466q122 215 302 215q73 0 237 -75q170 -58 207 -58q115 0 207 154l97 -63q-133 -235 -308 -235q-67 0 -132 29l-103 45q-120 69 -200 69q-70 0 -126 -50q-39 -35 -106 -130z" />
<glyph unicode="&#xa2;" d="M128 447q0 251 155 387q120 104 270 104q20 0 61 -4l138 379h72l-144 -398q100 -45 137 -86q47 -54 47 -114q0 -84 -93 -84q-54 0 -85 37q-18 22 -26 81q-4 31 -16 65l-226 -625q86 -60 161 -60q128 0 200 85q32 37 82 144l30 -12q-47 -187 -161 -290q-89 -80 -219 -80 q-80 0 -161 35l-140 -386h-69l153 423q-80 75 -116 152q-50 109 -50 247zM286 530q0 -136 80 -282l221 608q-28 12 -59 12q-101 0 -161 -73q-81 -99 -81 -265z" />
<glyph unicode="&#xa3;" horiz-adv-x="897" d="M65 0l69 174h59q20 112 20 242q0 20 -1 60t-1 60h-108l55 145h47q-2 14 -2 46v23q3 175 112 292q113 122 285 124h3q104 0 184 -65l-94 -146q-105 67 -194 67q-141 0 -141 -159q0 -31 9 -180h167l-58 -145h-105q-8 -245 -93 -364h513l-61 -174h-665z" />
<glyph unicode="&#xa5;" d="M2 348v73h420v142l-15 36h-405v72h373l-211 491q-30 73 -58 101q-39 41 -104 42v37h438v-37q-120 -8 -120 -62q0 -14 18 -58l211 -514l211 499q21 50 21 74q0 21 -21 41q-13 13 -63 17q-7 1 -27 3v37h343v-37q-59 0 -86 -23q-44 -36 -85 -131l-212 -480h383v-72h-415 l-7 -16v-162h422v-73h-422v-106q0 -112 11 -142q22 -59 118 -59h40v-41h-510v41h32q117 0 136 82q4 18 4 119v106h-420z" />
<glyph unicode="&#xa8;" horiz-adv-x="675" d="M56 1216q0 44 31.5 76t75.5 32q46 0 77 -31.5t31 -76.5t-31 -76t-76 -31q-44 0 -76 31t-32 76zM405 1216q0 44 31.5 76t76.5 32q44 0 75.5 -32t31.5 -76q0 -45 -31.5 -76t-75.5 -31q-45 0 -76.5 31t-31.5 76z" />
<glyph unicode="&#xa9;" horiz-adv-x="1540" d="M68 671q0 191 95.5 357t262.5 255.5t344 89.5q188 0 352 -93q167 -94 257 -256q94 -170 94 -353q0 -190 -94 -352q-95 -166 -259 -257q-169 -93 -350 -93q-193 0 -353 92q-164 93 -256.5 260.5t-92.5 349.5zM130 671q0 -174 86 -323.5t237 -233.5t317 -84q177 0 324 84 q150 85 234 237.5t84 319.5q0 175 -87 325.5t-239.5 233.5t-315.5 83q-169 0 -320.5 -87t-233.5 -233q-86 -154 -86 -322zM317 665q0 212 142 338q137 121 351 121q69 0 183 -38q24 -8 37 -8q30 0 48 45h40l20 -278h-39q-70 234 -300 234q-159 0 -244 -117 q-74 -103 -74 -268q0 -180 71 -285q85 -124 257 -124q193 0 309 161l36 -19q-137 -201 -379 -201q-201 0 -328 119q-130 120 -130 320z" />
<glyph unicode="&#xab;" d="M63 459l383 466h57l-242 -466l242 -467h-57zM503 459l390 466h57l-240 -466l240 -467h-57z" />
<glyph unicode="&#xae;" horiz-adv-x="1540" d="M68 671q0 191 95.5 357t262.5 255.5t344 89.5q188 0 352 -93q167 -94 257 -256q94 -170 94 -353q0 -190 -94 -352q-95 -166 -259 -257q-169 -93 -350 -93q-193 0 -353 92q-164 93 -256.5 260.5t-92.5 349.5zM130 671q0 -174 86 -323.5t237 -233.5t317 -84q177 0 324 84 q150 85 234 237.5t84 319.5q0 175 -87 325.5t-239.5 233.5t-315.5 83q-169 0 -320.5 -87t-233.5 -233q-86 -154 -86 -322zM370 247v32q77 0 96 45q7 17 7 92v518q0 75 -3 86q-13 47 -88 47v36h382q119 0 199 -51q95 -59 95 -171q0 -162 -219 -220l206 -295q37 -52 68 -72 q18 -12 52 -15v-32h-182l-291 400h-75v-305q11 -63 117 -63v-32h-364zM617 690q193 0 253 87q29 42 29 93q0 86 -56 137.5t-143 51.5q-38 0 -83 -16v-353z" />
<glyph unicode="&#xb0;" horiz-adv-x="789" d="M83 1028q0 137 86 223.5t224 86.5t224.5 -86.5t86.5 -223.5q0 -138 -86.5 -223t-224.5 -85q-137 0 -223.5 85.5t-86.5 222.5zM168 1028q0 -101 64 -165t165 -64q102 0 166 63.5t64 165.5q0 100 -65 164.5t-165 64.5q-102 0 -165.5 -63.5t-63.5 -165.5z" />
<glyph unicode="&#xb4;" horiz-adv-x="358" d="M50 708q74 128 74 283q0 37 -4 63q-15 70 -15 85q0 74 75 74q87 0 87 -143q0 -103 -66 -211q-73 -117 -132 -164z" />
<glyph unicode="&#xb8;" horiz-adv-x="348" d="M30 -210q72 128 72 283q0 39 -4 63q-14 71 -14 85q0 73 75 73q88 0 88 -142q0 -103 -68 -210q-72 -118 -131 -165z" />
<glyph unicode="&#xbb;" d="M63 -8l241 465l-241 468h58l390 -468l-390 -465h-58zM511 -8l241 465l-241 468h56l383 -468l-383 -465h-56z" />
<glyph unicode="&#x2c6;" horiz-adv-x="780" d="M27 432l314 694h105l314 -694h-158l-206 503l-230 -503h-139z" />
<glyph unicode="&#x2da;" horiz-adv-x="386" d="M-311 429q0 137 86 223.5t224 86.5t224.5 -86.5t86.5 -223.5q0 -138 -86.5 -223t-224.5 -85q-137 0 -223.5 85.5t-86.5 222.5zM-226 429q0 -101 64 -165t165 -64q102 0 166 63.5t64 165.5q0 100 -65 164.5t-165 64.5q-102 0 -165.5 -63.5t-63.5 -165.5z" />
<glyph unicode="&#x2dc;" horiz-adv-x="386" d="M-524 219q122 215 302 215q73 0 237 -75q170 -58 207 -58q115 0 207 154l97 -63q-133 -235 -308 -235q-67 0 -132 29l-103 45q-120 69 -200 69q-70 0 -126 -50q-39 -35 -106 -130z" />
<glyph unicode="&#x5b0;" horiz-adv-x="0" d="M496 -163q0 25 19.5 43.5t44.5 18.5q66 0 66 -62q0 -27 -19.5 -46.5t-46.5 -19.5q-25 0 -44.5 19.5t-19.5 46.5zM500 -360q0 62 62 62q66 0 66 -62q0 -66 -66 -66q-62 0 -62 66z" />
<glyph unicode="&#x5b1;" horiz-adv-x="0" d="M318 -163q0 27 18.5 47.5t47.5 20.5q27 0 48 -21.5t21 -46.5q0 -68 -69 -68q-66 0 -66 68zM409 -339q0 68 66 68q68 0 68 -68q0 -66 -68 -66q-66 0 -66 66zM500 -163q0 27 20.5 47.5t47.5 20.5q68 0 68 -68t-68 -68t-68 68zM684 -163q0 68 67 68t67 -68t-67 -68t-67 68z M684 -339q0 68 67 68q37 0 57 -31q10 -16 10 -37q0 -66 -67 -66q-36 0 -57 31q-10 14 -10 35z" />
<glyph unicode="&#x5b2;" horiz-adv-x="0" d="M161 -161q0 20 11 36h324q8 -18 8 -40t-8 -37h-324q-11 17 -11 41zM549 -167q0 68 68 68q66 0 66 -68t-66 -68q-68 0 -68 68zM549 -343q0 68 68 68q36 0 56 -31q10 -16 10 -37q0 -66 -66 -66q-37 0 -58 31q-10 14 -10 35z" />
<glyph unicode="&#x5b3;" horiz-adv-x="0" d="M343 -174q0 21 9 36h291q7 -17 7 -40q0 -22 -7 -37h-109q13 -26 13 -74v-67q-17 -12 -48 -12t-49 12v67q0 50 14 74h-112q-9 17 -9 41zM695 -180q0 67 69 67q68 0 68 -67t-68 -67q-69 0 -69 67zM695 -354q0 67 69 67q68 0 68 -67q0 -70 -68 -70q-69 0 -69 70z" />
<glyph unicode="&#x5b4;" horiz-adv-x="0" d="M507 -204q0 26 19 44t46 18q65 0 65 -62q0 -27 -19.5 -46t-45.5 -19q-27 0 -46 19t-19 46z" />
<glyph unicode="&#x5b5;" horiz-adv-x="0" d="M403 -163q0 25 19 43.5t45 18.5q66 0 66 -62q0 -27 -19.5 -46.5t-46.5 -19.5q-26 0 -45 19.5t-19 46.5zM614 -163q0 25 18.5 43.5t45.5 18.5q65 0 65 -62q0 -27 -19 -46.5t-46 -19.5t-45.5 19.5t-18.5 46.5z" />
<glyph unicode="&#x5b6;" horiz-adv-x="0" d="M409 -163q0 25 19 43.5t45 18.5q66 0 66 -62q0 -27 -19.5 -46.5t-46.5 -19.5q-26 0 -45 19.5t-19 46.5zM510 -328q0 65 63 65q26 0 45.5 -19.5t19.5 -45.5q0 -65 -65 -65q-63 0 -63 65zM603 -163q0 25 19.5 43.5t45.5 18.5q65 0 65 -62q0 -27 -19.5 -46.5t-45.5 -19.5 t-45.5 19.5t-19.5 46.5z" />
<glyph unicode="&#x5b7;" horiz-adv-x="0" d="M393 -174q0 21 11 36h324q8 -17 8 -40q0 -22 -8 -37h-324q-11 17 -11 41z" />
<glyph unicode="&#x5b8;" horiz-adv-x="0" d="M403 -174q0 21 10 36h324q8 -17 8 -40q0 -22 -8 -37h-128q15 -26 15 -74v-83q-19 -13 -47 -13q-33 0 -51 13v83q0 48 17 74h-130q-10 17 -10 41z" />
<glyph unicode="&#x5b9;" horiz-adv-x="145" d="M0 1190q0 27 19.5 45t45.5 18q65 0 65 -63q0 -26 -19.5 -45t-45.5 -19t-45.5 19t-19.5 45z" />
<glyph unicode="&#x5bb;" horiz-adv-x="0" d="M490 -153q0 25 19.5 46.5t46.5 21.5q29 0 49.5 -20t20.5 -48q0 -41 -33 -60q-14 -8 -37 -8q-25 0 -45.5 20.5t-20.5 47.5zM605 -281q0 66 67 66q70 0 70 -66q0 -27 -20.5 -48t-49.5 -21q-27 0 -47 21t-20 48zM717 -409q0 66 67 66q66 0 66 -66q0 -69 -66 -69 q-67 0 -67 69z" />
<glyph unicode="&#x5bc;" horiz-adv-x="155" d="M10 517q0 27 19.5 45t44.5 18q66 0 66 -63q0 -26 -19.5 -45.5t-46.5 -19.5q-25 0 -44.5 19.5t-19.5 45.5z" />
<glyph unicode="&#x5bd;" horiz-adv-x="91" d="M0 -132h91v-257h-91v257z" />
<glyph unicode="&#x5be;" horiz-adv-x="646" d="M80 842v73l84 16q42 8 139 8q102 0 143 -8l78 -16v-73q-41 -8 -78 -16q-48 -7 -145 -7t-139 7z" />
<glyph unicode="&#x5bf;" horiz-adv-x="673" d="M62 823l76 156h483l-81 -156h-478z" />
<glyph unicode="&#x5c0;" horiz-adv-x="459" d="M182 -362v1877h96v-1877h-96z" />
<glyph unicode="&#x5c1;" horiz-adv-x="145" d="M0 1190q0 27 19.5 45t45.5 18q65 0 65 -63q0 -26 -19.5 -45t-45.5 -19t-45.5 19t-19.5 45z" />
<glyph unicode="&#x5c2;" horiz-adv-x="145" d="M0 1190q0 27 19.5 45t45.5 18q65 0 65 -63q0 -26 -19.5 -45t-45.5 -19t-45.5 19t-19.5 45z" />
<glyph unicode="&#x5c3;" horiz-adv-x="495" d="M121 108q0 44 31 75.5t74 31.5q44 0 76 -31.5t32 -75.5q0 -43 -32 -74.5t-76 -31.5q-43 0 -74 31.5t-31 74.5zM121 730q0 44 31 76t74 32q44 0 76 -32t32 -76q0 -45 -32 -75t-76 -30q-43 0 -74 30t-31 75z" />
<glyph unicode="&#x5d0;" horiz-adv-x="956" d="M80 853l103 89l439 -530q32 0 54.5 30t22.5 85v392h142v-234q0 -207 -157 -350l228 -270l-104 -89l-484 589q-47 0 -66 -40q-15 -32 -15 -67v-458h-139v290q0 219 156 351z" />
<glyph unicode="&#x5d1;" horiz-adv-x="845" d="M80 0v138h495v555q0 87 -34 87h-461v139h523q112 -62 112 -221v-382q0 -95 -79 -178h156v-138h-712z" />
<glyph unicode="&#x5d2;" horiz-adv-x="621" d="M56 0v132h90q55 0 134 67q91 79 91 138v361q0 82 -34 82h-229v139h277q126 -58 126 -240v-679h-97l-25 205h-10q-122 -205 -217 -205h-106z" />
<glyph unicode="&#x5d3;" horiz-adv-x="857" d="M70 780v139h695v-139h-118v-780h-137v780h-440z" />
<glyph unicode="&#x5d4;" horiz-adv-x="930" d="M107 780v139h711v-919h-140v780h-571zM117 0v373q0 65 38 152h101v-525h-139z" />
<glyph unicode="&#x5d5;" horiz-adv-x="484" d="M60 780v139h313v-919h-137v780h-176z" />
<glyph unicode="&#x5d6;" horiz-adv-x="538" d="M70 780v139h387v-139h-89q-32 0 -40 -34q-4 -12 -4 -63v-683h-139v557q0 104 87 223h-202z" />
<glyph unicode="&#x5d7;" horiz-adv-x="940" d="M117 0v919h712v-919h-141v780h-434v-780h-137z" />
<glyph unicode="&#x5d8;" horiz-adv-x="934" d="M111 276v643h137v-670q0 -58 8 -77q12 -34 64 -34h294q46 0 60 34q8 21 8 77v531h-207v139h347v-619q0 -209 -162 -300h-417q-132 81 -132 276z" />
<glyph unicode="&#x5d9;" horiz-adv-x="474" d="M60 780v139h313v-536h-137v397h-176z" />
<glyph unicode="&#x5da;" horiz-adv-x="842" d="M60 780v139h546q126 -87 126 -273v-1051h-138l-2 1088q0 97 -39 97h-493z" />
<glyph unicode="&#x5db;" horiz-adv-x="847" d="M80 0v138h478q56 0 56 111v434q0 55 -10.5 76t-45.5 21h-478v139h521q65 -25 109.5 -91t44.5 -155v-404q0 -176 -156 -269h-519z" />
<glyph unicode="&#x5dc;" horiz-adv-x="845" d="M70 780v422h138v-283h545v-139q0 -99 -46 -196l-288 -612l-122 57l345 719q2 4 3 18q0 14 -11 14h-564z" />
<glyph unicode="&#x5dd;" horiz-adv-x="960" d="M50 780v139h799v-919h-711v780h-88zM276 138h434v642h-434v-642z" />
<glyph unicode="&#x5de;" horiz-adv-x="948" d="M64 780v139h633q140 -72 140 -267v-652h-384v138h246v545q0 51 -7 65q-10 32 -47 32h-348q-33 0 -33 -97v-683h-139v586q0 97 79 194h-140z" />
<glyph unicode="&#x5df;" horiz-adv-x="484" d="M60 780v139h313v-1324h-137v1185h-176z" />
<glyph unicode="&#x5e0;" horiz-adv-x="573" d="M60 0v138h238q25 0 25 36v606h-191v139h330v-718q0 -118 -87 -201h-315z" />
<glyph unicode="&#x5e1;" horiz-adv-x="958" d="M50 780v139h797v-576q0 -250 -164 -343h-399q-79 45 -111.5 114.5t-32.5 195.5v470h-90zM280 249q0 -61 8 -81q14 -30 62 -30h287q73 0 73 111v531h-430v-531z" />
<glyph unicode="&#x5e2;" horiz-adv-x="885" d="M36 -40l288 166l-49 58q-40 50 -55 106l-154 629h144l174 -757l168 99q47 27 65.5 59t18.5 116v483h137v-515q-48 -128 -129 -216q-59 -58 -136 -105l-458 -269h-14v146z" />
<glyph unicode="&#x5e3;" horiz-adv-x="877" d="M105 379v540h528q133 -85 133 -264v-1060h-137v1088q0 59 -8.5 78t-40.5 19h-342v-265h196v-136h-329z" />
<glyph unicode="&#x5e4;" horiz-adv-x="907" d="M115 0v138h503q54 0 54 111v434q0 55 -10.5 76t-43.5 21h-368v-265h201v-136h-336v540h551q65 -25 106.5 -91t41.5 -155v-404q0 -176 -156 -269h-543z" />
<glyph unicode="&#x5e5;" horiz-adv-x="828" d="M40 878l121 61l278 -525q73 0 111 44q35 39 35 95v366h142v-232q0 -105 -73 -215q-63 -95 -162 -168l337 -640l-114 -69z" />
<glyph unicode="&#x5e6;" horiz-adv-x="859" d="M40 855l111 84l384 -511q19 0 44 18q37 28 37 88v385h141v-232q0 -198 -166 -342l81 -107q59 -80 59 -180v-58h-657v138h529v8q-62 53 -126 134z" />
<glyph unicode="&#x5e7;" horiz-adv-x="952" d="M70 780v139h801v-139q0 -128 -67 -275l-225 -505l-124 58l310 692q14 30 -8 30h-495v-1185h-137v972q0 88 77 213h-132z" />
<glyph unicode="&#x5e8;" horiz-adv-x="842" d="M60 780v139h548q124 -83 124 -267v-652h-138v683q0 97 -49 97h-485z" />
<glyph unicode="&#x5e9;" horiz-adv-x="1157" d="M111 343v576h137v-650q0 -74 15.5 -102.5t68.5 -28.5h176v781h136v-781h174q55 0 73 30q14 25 14 99v652h140v-571q0 -228 -178 -348h-588q-168 108 -168 343z" />
<glyph unicode="&#x5ea;" horiz-adv-x="985" d="M50 0v138h149v458q0 65 66 184h-133v139h742v-919h-140v780h-395v-780h-289z" />
<glyph unicode="&#x5f0;" horiz-adv-x="968" d="M60 780v139h313v-919h-137v780h-176zM544 780v139h313v-919h-137v780h-176z" />
<glyph unicode="&#x5f1;" horiz-adv-x="958" d="M60 780v139h313v-536h-137v397h-176zM534 780v139h313v-919h-137v780h-176z" />
<glyph unicode="&#x5f2;" horiz-adv-x="948" d="M60 780v139h313v-536h-137v397h-176zM534 780v139h313v-536h-137v397h-176z" />
<glyph unicode="&#x5f3;" horiz-adv-x="297" d="M80 661q31 177 31 285v137h122v-144q-13 -80 -48 -169q-30 -79 -54 -109h-51z" />
<glyph unicode="&#x5f4;" horiz-adv-x="563" d="M80 661q31 177 31 285v137h122v-144q-13 -80 -48 -169q-30 -79 -54 -109h-51zM346 661q30 177 30 285v137h122v-144q-12 -80 -47 -169q-30 -79 -55 -109h-50z" />
<glyph unicode="&#x2013;" horiz-adv-x="559" d="M60 780v139h408v-139h-408z" />
<glyph unicode="&#x2014;" horiz-adv-x="2027" d="M109 440v121h1811v-121h-1811z" />
<glyph unicode="&#x2018;" horiz-adv-x="297" d="M80 661v144q12 79 47 168q30 79 54 110h52q-31 -177 -31 -286v-136h-122z" />
<glyph unicode="&#x2019;" horiz-adv-x="297" d="M80 661q31 177 31 285v137h122v-144q-13 -80 -48 -169q-30 -79 -54 -109h-51z" />
<glyph unicode="&#x201a;" horiz-adv-x="303" d="M60 -132q31 177 31 266v135h122v-123q-12 -79 -47 -168q-30 -79 -54 -110h-52z" />
<glyph unicode="&#x201c;" horiz-adv-x="563" d="M80 661v144q12 79 47 168q30 79 54 110h52q-31 -177 -31 -286v-136h-122zM346 661v144q11 79 46 168q31 79 55 110h51q-31 -177 -31 -286v-136h-121z" />
<glyph unicode="&#x201d;" horiz-adv-x="563" d="M80 661q31 177 31 285v137h122v-144q-13 -80 -48 -169q-30 -79 -54 -109h-51zM346 661q30 177 30 285v137h122v-144q-12 -80 -47 -169q-30 -79 -55 -109h-50z" />
<glyph unicode="&#x201e;" horiz-adv-x="544" d="M61 -152q31 175 31 285v135h122v-143q-13 -79 -48 -169q-29 -79 -54 -108h-51zM327 -152q30 175 30 285v135h122v-143q-12 -79 -46 -169q-31 -79 -56 -108h-50z" />
<glyph unicode="&#x2026;" horiz-adv-x="944" d="M40 65q0 40 28 68.5t69 28.5q40 0 69 -28.5t29 -68.5t-29 -68.5t-69 -28.5q-41 0 -69 28.5t-28 68.5zM357 65q0 40 29 68.5t69 28.5q41 0 69 -28.5t28 -68.5t-28 -68.5t-69 -28.5q-40 0 -69 28.5t-29 68.5zM678 65q0 40 28.5 68.5t68.5 28.5q41 0 69.5 -28.5t28.5 -68.5 t-28.5 -68.5t-69.5 -28.5q-40 0 -68.5 28.5t-28.5 68.5z" />
<glyph unicode="&#x2039;" horiz-adv-x="675" d="M118 459l383 466h56l-241 -466l241 -467h-56z" />
<glyph unicode="&#x203a;" horiz-adv-x="675" d="M114 -8l240 465l-240 468h57l390 -468l-390 -465h-57z" />
<glyph unicode="&#x2122;" horiz-adv-x="1986" d="M30 1143l20 199h721l22 -199h-34q-19 140 -192 140h-74v-573q0 -75 16 -99q20 -29 89 -32v-35h-370v35q67 6 85 34q14 22 14 96v574h-76q-86 0 -126 -27q-46 -30 -62 -113h-33zM861 544v35q85 0 103 41q9 21 9 89v461q0 107 -36 126q-19 10 -76 10v36h283l271 -566 l262 566h276v-36q-40 -1 -59 -6q-30 -8 -42 -37q-9 -22 -9 -91v-463q0 -79 16 -100q20 -26 94 -30v-35h-394v35q44 1 63 6q33 9 46 38q9 20 9 85v487l-304 -651h-32l-304 642v-477q0 -98 35 -119q19 -11 57 -11h35v-35h-303z" />
<glyph unicode="&#xe000;" horiz-adv-x="905" d="M0 905h905v-905h-905v905z" />
<glyph unicode="&#xfb00;" horiz-adv-x="1350" d="M78 836v71h176v59q0 268 178 382q89 58 201 58q104 0 191 -68q57 -44 57 -100q0 -29 -25.5 -55.5t-55.5 -26.5q-6 0 -107 89.5t-139 89.5q-96 0 -122 -99q-14 -52 -14 -264v-65h233v-71h-233v-596q0 -127 28 -161q36 -43 98 -43h82v-36h-542v36h41q91 0 118 73 q11 33 11 131v596h-176zM753 836v71h176v59q0 268 178 382q89 58 201 58q104 0 191 -68q57 -44 57 -100q0 -29 -25.5 -55.5t-55.5 -26.5q-6 0 -107 89.5t-139 89.5q-96 0 -122 -99q-14 -52 -14 -264v-65h233v-71h-233v-596q0 -127 28 -161q36 -43 98 -43h82v-36h-542v36h41 q91 0 118 73q11 33 11 131v596h-176z" />
<glyph unicode="&#xfb01;" horiz-adv-x="1238" d="M78 836v71h176v59q0 268 178 382q89 58 201 58q104 0 191 -68q57 -44 57 -100q0 -29 -25.5 -55.5t-55.5 -26.5q-6 0 -107 89.5t-139 89.5q-96 0 -122 -99q-14 -52 -14 -264v-65h233v-71h-233v-596q0 -127 28 -161q36 -43 98 -43h82v-36h-542v36h41q91 0 118 73 q11 33 11 131v596h-176zM734 823l274 111h43v-729q0 -128 50 -155q24 -14 88 -14v-36h-441v36q101 0 126 55q13 29 13 114v349q0 149 -9 191q-12 57 -62 57q-28 0 -68 -15zM868 1308q0 42 29 71t72 29q42 0 71 -29.5t29 -70.5q0 -42 -29 -71.5t-71 -29.5t-71.5 29.5 t-29.5 71.5z" />
<glyph unicode="&#xfb02;" horiz-adv-x="1238" d="M78 836v71h176v59q0 268 178 382q89 58 201 58q104 0 191 -68q57 -44 57 -100q0 -29 -25.5 -55.5t-55.5 -26.5q-6 0 -107 89.5t-139 89.5q-96 0 -122 -99q-14 -52 -14 -264v-65h233v-71h-233v-596q0 -127 28 -161q36 -43 98 -43h82v-36h-542v36h41q91 0 118 73 q11 33 11 131v596h-176zM735 1297l271 111h44v-1203q0 -127 51 -155q26 -14 96 -14v-36h-445v36q97 0 121 55q13 30 13 114v824q0 212 -29 236q-15 13 -39 13q-26 0 -66 -16z" />
<glyph unicode="&#xfb03;" horiz-adv-x="1913" d="M78 836v71h176v59q0 268 178 382q89 58 201 58q104 0 191 -68q57 -44 57 -100q0 -29 -25.5 -55.5t-55.5 -26.5q-6 0 -107 89.5t-139 89.5q-96 0 -122 -99q-14 -52 -14 -264v-65h233v-71h-233v-596q0 -127 28 -161q36 -43 98 -43h82v-36h-542v36h41q91 0 118 73 q11 33 11 131v596h-176zM753 836v71h176v59q0 268 178 382q89 58 201 58q104 0 191 -68q57 -44 57 -100q0 -29 -25.5 -55.5t-55.5 -26.5q-6 0 -107 89.5t-139 89.5q-96 0 -122 -99q-14 -52 -14 -264v-65h233v-71h-233v-596q0 -127 28 -161q36 -43 98 -43h82v-36h-542v36h41 q91 0 118 73q11 33 11 131v596h-176zM1409 823l274 111h43v-729q0 -128 50 -155q24 -14 88 -14v-36h-441v36q101 0 126 55q13 29 13 114v349q0 149 -9 191q-12 57 -62 57q-28 0 -68 -15zM1543 1308q0 42 29 71t72 29q42 0 71 -29.5t29 -70.5q0 -42 -29 -71.5t-71 -29.5 t-71.5 29.5t-29.5 71.5z" />
<glyph unicode="&#xfb04;" horiz-adv-x="1913" d="M78 836v71h176v59q0 268 178 382q89 58 201 58q104 0 191 -68q57 -44 57 -100q0 -29 -25.5 -55.5t-55.5 -26.5q-6 0 -107 89.5t-139 89.5q-96 0 -122 -99q-14 -52 -14 -264v-65h233v-71h-233v-596q0 -127 28 -161q36 -43 98 -43h82v-36h-542v36h41q91 0 118 73 q11 33 11 131v596h-176zM753 836v71h176v59q0 268 178 382q89 58 201 58q104 0 191 -68q57 -44 57 -100q0 -29 -25.5 -55.5t-55.5 -26.5q-6 0 -107 89.5t-139 89.5q-96 0 -122 -99q-14 -52 -14 -264v-65h233v-71h-233v-596q0 -127 28 -161q36 -43 98 -43h82v-36h-542v36h41 q91 0 118 73q11 33 11 131v596h-176zM1410 1297l271 111h44v-1203q0 -127 51 -155q26 -14 96 -14v-36h-445v36q97 0 121 55q13 30 13 114v824q0 212 -29 236q-15 13 -39 13q-26 0 -66 -16z" />
<glyph unicode="&#xfb06;" horiz-adv-x="1352" d="M99 671q0 117 80 190q77 73 195 73q54 0 130 -23q50 -15 67 -15q27 0 46 38h32v-309h-32q-32 120 -77 176q-61 74 -170 74q-57 0 -103 -30q-51 -33 -51 -88q0 -105 156 -181l145 -70q201 -98 201 -258q0 -129 -89 -204q-84 -72 -214 -72q-85 0 -190 30q-35 10 -54 10 q-23 0 -35 -26h-33v324h33q23 -120 91 -194q76 -85 190 -85q63 0 107 36q47 39 47 100q0 82 -84 146q-41 31 -162 90q-107 52 -156 99q-70 68 -70 169zM809 838v32q122 49 213 197q19 32 63 138h31v-298h212v-69h-212v-589q0 -149 90 -149q77 0 111 80h38 q-69 -195 -228 -195q-110 0 -154 98q-21 47 -21 145v610h-143z" />
<glyph unicode="&#xfb1d;" horiz-adv-x="474" d="M60 780v139h313v-536h-137v397h-176zM507 -204q0 26 19 44t46 18q65 0 65 -62q0 -27 -19.5 -46t-45.5 -19q-27 0 -46 19t-19 46z" />
<glyph unicode="&#xfb1f;" horiz-adv-x="948" d="M60 780v139h313v-536h-137v397h-176zM393 -174q0 21 11 36h324q8 -17 8 -40q0 -22 -8 -37h-324q-11 17 -11 41zM534 780v139h313v-536h-137v397h-176z" />
<glyph unicode="&#xfb20;" horiz-adv-x="885" d="M36 -40l288 166l-49 58q-40 50 -55 106l-154 629h144l174 -757l168 99q47 27 65.5 59t18.5 116v483h137v-515q-48 -128 -129 -216q-59 -58 -136 -105l-458 -269h-14v146z" />
<glyph unicode="&#xfb21;" horiz-adv-x="956" d="M80 853l103 89l439 -530q32 0 54.5 30t22.5 85v392h142v-234q0 -207 -157 -350l228 -270l-104 -89l-484 589q-47 0 -66 -40q-15 -32 -15 -67v-458h-139v290q0 219 156 351z" />
<glyph unicode="&#xfb22;" horiz-adv-x="857" d="M70 780v139h695v-139h-118v-780h-137v780h-440z" />
<glyph unicode="&#xfb23;" horiz-adv-x="930" d="M107 780v139h711v-919h-140v780h-571zM117 0v373q0 65 38 152h101v-525h-139z" />
<glyph unicode="&#xfb24;" horiz-adv-x="847" d="M80 0v138h478q56 0 56 111v434q0 55 -10.5 76t-45.5 21h-478v139h521q65 -25 109.5 -91t44.5 -155v-404q0 -176 -156 -269h-519z" />
<glyph unicode="&#xfb25;" horiz-adv-x="845" d="M70 780v422h138v-283h545v-139q0 -99 -46 -196l-288 -612l-122 57l345 719q2 4 3 18q0 14 -11 14h-564z" />
<glyph unicode="&#xfb26;" horiz-adv-x="960" d="M50 780v139h799v-919h-711v780h-88zM276 138h434v642h-434v-642z" />
<glyph unicode="&#xfb27;" horiz-adv-x="842" d="M60 780v139h548q124 -83 124 -267v-652h-138v683q0 97 -49 97h-485z" />
<glyph unicode="&#xfb28;" horiz-adv-x="985" d="M50 0v138h149v458q0 65 66 184h-133v139h742v-919h-140v780h-395v-780h-289z" />
<glyph unicode="&#xfb29;" horiz-adv-x="790" d="M30 445v114h308v313h113v-313h310v-114h-310v-309h-113v309h-308z" />
<glyph unicode="&#xfb2a;" horiz-adv-x="1302" d="M0 1190q0 27 19.5 45t45.5 18q65 0 65 -63q0 -26 -19.5 -45t-45.5 -19t-45.5 19t-19.5 45zM257 343v576h137v-650q0 -74 15.5 -102.5t68.5 -28.5h176v781h136v-781h174q55 0 73 30q14 25 14 99v652h140v-571q0 -228 -178 -348h-588q-168 108 -168 343z" />
<glyph unicode="&#xfb2b;" horiz-adv-x="1302" d="M0 1190q0 27 19.5 45t45.5 18q65 0 65 -63q0 -26 -19.5 -45t-45.5 -19t-45.5 19t-19.5 45zM257 343v576h137v-650q0 -74 15.5 -102.5t68.5 -28.5h176v781h136v-781h174q55 0 73 30q14 25 14 99v652h140v-571q0 -228 -178 -348h-588q-168 108 -168 343z" />
<glyph unicode="&#xfb2e;" horiz-adv-x="956" d="M80 853l103 89l439 -530q32 0 54.5 30t22.5 85v392h142v-234q0 -207 -157 -350l228 -270l-104 -89l-484 589q-47 0 -66 -40q-15 -32 -15 -67v-458h-139v290q0 219 156 351zM393 -174q0 21 11 36h324q8 -17 8 -40q0 -22 -8 -37h-324q-11 17 -11 41z" />
<glyph unicode="&#xfb2f;" horiz-adv-x="956" d="M80 853l103 89l439 -530q32 0 54.5 30t22.5 85v392h142v-234q0 -207 -157 -350l228 -270l-104 -89l-484 589q-47 0 -66 -40q-15 -32 -15 -67v-458h-139v290q0 219 156 351zM403 -174q0 21 10 36h324q8 -17 8 -40q0 -22 -8 -37h-128q15 -26 15 -74v-83q-19 -13 -47 -13 q-33 0 -51 13v83q0 48 17 74h-130q-10 17 -10 41z" />
<glyph unicode="&#xfb30;" horiz-adv-x="1111" d="M10 517q0 27 19.5 45t44.5 18q66 0 66 -63q0 -26 -19.5 -45.5t-46.5 -19.5q-25 0 -44.5 19.5t-19.5 45.5zM235 853l103 89l439 -530q32 0 54.5 30t22.5 85v392h142v-234q0 -207 -157 -350l228 -270l-104 -89l-484 589q-47 0 -66 -40q-15 -32 -15 -67v-458h-139v290 q0 219 156 351z" />
<glyph unicode="&#xfb31;" horiz-adv-x="1000" d="M10 517q0 27 19.5 45t44.5 18q66 0 66 -63q0 -26 -19.5 -45.5t-46.5 -19.5q-25 0 -44.5 19.5t-19.5 45.5zM235 0v138h495v555q0 87 -34 87h-461v139h523q112 -62 112 -221v-382q0 -95 -79 -178h156v-138h-712z" />
<glyph unicode="&#xfb32;" horiz-adv-x="777" d="M10 517q0 27 19.5 45t44.5 18q66 0 66 -63q0 -26 -19.5 -45.5t-46.5 -19.5q-25 0 -44.5 19.5t-19.5 45.5zM211 0v132h90q55 0 134 67q91 79 91 138v361q0 82 -34 82h-229v139h277q126 -58 126 -240v-679h-97l-25 205h-10q-122 -205 -217 -205h-106z" />
<glyph unicode="&#xfb33;" horiz-adv-x="1012" d="M10 517q0 27 19.5 45t44.5 18q66 0 66 -63q0 -26 -19.5 -45.5t-46.5 -19.5q-25 0 -44.5 19.5t-19.5 45.5zM225 780v139h695v-139h-118v-780h-137v780h-440z" />
<glyph unicode="&#xfb34;" horiz-adv-x="1086" d="M10 517q0 27 19.5 45t44.5 18q66 0 66 -63q0 -26 -19.5 -45.5t-46.5 -19.5q-25 0 -44.5 19.5t-19.5 45.5zM262 780v139h711v-919h-140v780h-571zM272 0v373q0 65 38 152h101v-525h-139z" />
<glyph unicode="&#xfb35;" horiz-adv-x="639" d="M10 517q0 27 19.5 45t44.5 18q66 0 66 -63q0 -26 -19.5 -45.5t-46.5 -19.5q-25 0 -44.5 19.5t-19.5 45.5zM215 780v139h313v-919h-137v780h-176z" />
<glyph unicode="&#xfb36;" horiz-adv-x="693" d="M10 517q0 27 19.5 45t44.5 18q66 0 66 -63q0 -26 -19.5 -45.5t-46.5 -19.5q-25 0 -44.5 19.5t-19.5 45.5zM225 780v139h387v-139h-89q-32 0 -40 -34q-4 -12 -4 -63v-683h-139v557q0 104 87 223h-202z" />
<glyph unicode="&#xfb38;" horiz-adv-x="1089" d="M10 517q0 27 19.5 45t44.5 18q66 0 66 -63q0 -26 -19.5 -45.5t-46.5 -19.5q-25 0 -44.5 19.5t-19.5 45.5zM266 276v643h137v-670q0 -58 8 -77q12 -34 64 -34h294q46 0 60 34q8 21 8 77v531h-207v139h347v-619q0 -209 -162 -300h-417q-132 81 -132 276z" />
<glyph unicode="&#xfb39;" horiz-adv-x="629" d="M10 517q0 27 19.5 45t44.5 18q66 0 66 -63q0 -26 -19.5 -45.5t-46.5 -19.5q-25 0 -44.5 19.5t-19.5 45.5zM215 780v139h313v-536h-137v397h-176z" />
<glyph unicode="&#xfb3a;" horiz-adv-x="997" d="M10 517q0 27 19.5 45t44.5 18q66 0 66 -63q0 -26 -19.5 -45.5t-46.5 -19.5q-25 0 -44.5 19.5t-19.5 45.5zM215 780v139h546q126 -87 126 -273v-1051h-138l-2 1088q0 97 -39 97h-493z" />
<glyph unicode="&#xfb3b;" horiz-adv-x="1002" d="M10 517q0 27 19.5 45t44.5 18q66 0 66 -63q0 -26 -19.5 -45.5t-46.5 -19.5q-25 0 -44.5 19.5t-19.5 45.5zM235 0v138h478q56 0 56 111v434q0 55 -10.5 76t-45.5 21h-478v139h521q65 -25 109.5 -91t44.5 -155v-404q0 -176 -156 -269h-519z" />
<glyph unicode="&#xfb3c;" horiz-adv-x="1000" d="M10 517q0 27 19.5 45t44.5 18q66 0 66 -63q0 -26 -19.5 -45.5t-46.5 -19.5q-25 0 -44.5 19.5t-19.5 45.5zM225 780v422h138v-283h545v-139q0 -99 -46 -196l-288 -612l-122 57l345 719q2 4 3 18q0 14 -11 14h-564z" />
<glyph unicode="&#xfb3e;" horiz-adv-x="1103" d="M10 517q0 27 19.5 45t44.5 18q66 0 66 -63q0 -26 -19.5 -45.5t-46.5 -19.5q-25 0 -44.5 19.5t-19.5 45.5zM219 780v139h633q140 -72 140 -267v-652h-384v138h246v545q0 51 -7 65q-10 32 -47 32h-348q-33 0 -33 -97v-683h-139v586q0 97 79 194h-140z" />
<glyph unicode="&#xfb40;" horiz-adv-x="728" d="M10 517q0 27 19.5 45t44.5 18q66 0 66 -63q0 -26 -19.5 -45.5t-46.5 -19.5q-25 0 -44.5 19.5t-19.5 45.5zM215 0v138h238q25 0 25 36v606h-191v139h330v-718q0 -118 -87 -201h-315z" />
<glyph unicode="&#xfb41;" horiz-adv-x="1113" d="M10 517q0 27 19.5 45t44.5 18q66 0 66 -63q0 -26 -19.5 -45.5t-46.5 -19.5q-25 0 -44.5 19.5t-19.5 45.5zM205 780v139h797v-576q0 -250 -164 -343h-399q-79 45 -111.5 114.5t-32.5 195.5v470h-90zM435 249q0 -61 8 -81q14 -30 62 -30h287q73 0 73 111v531h-430v-531z " />
<glyph unicode="&#xfb43;" horiz-adv-x="1032" d="M10 517q0 27 19.5 45t44.5 18q66 0 66 -63q0 -26 -19.5 -45.5t-46.5 -19.5q-25 0 -44.5 19.5t-19.5 45.5zM260 379v540h528q133 -85 133 -264v-1060h-137v1088q0 59 -8.5 78t-40.5 19h-342v-265h196v-136h-329z" />
<glyph unicode="&#xfb44;" horiz-adv-x="1063" d="M10 517q0 27 19.5 45t44.5 18q66 0 66 -63q0 -26 -19.5 -45.5t-46.5 -19.5q-25 0 -44.5 19.5t-19.5 45.5zM270 0v138h503q54 0 54 111v434q0 55 -10.5 76t-43.5 21h-368v-265h201v-136h-336v540h551q65 -25 106.5 -91t41.5 -155v-404q0 -176 -156 -269h-543z" />
<glyph unicode="&#xfb46;" horiz-adv-x="1014" d="M10 517q0 27 19.5 45t44.5 18q66 0 66 -63q0 -26 -19.5 -45.5t-46.5 -19.5q-25 0 -44.5 19.5t-19.5 45.5zM195 855l111 84l384 -511q19 0 44 18q37 28 37 88v385h141v-232q0 -198 -166 -342l81 -107q59 -80 59 -180v-58h-657v138h529v8q-62 53 -126 134z" />
<glyph unicode="&#xfb47;" horiz-adv-x="1107" d="M10 517q0 27 19.5 45t44.5 18q66 0 66 -63q0 -26 -19.5 -45.5t-46.5 -19.5q-25 0 -44.5 19.5t-19.5 45.5zM225 780v139h801v-139q0 -128 -67 -275l-225 -505l-124 58l310 692q14 30 -8 30h-495v-1185h-137v972q0 88 77 213h-132z" />
<glyph unicode="&#xfb48;" horiz-adv-x="997" d="M10 517q0 27 19.5 45t44.5 18q66 0 66 -63q0 -26 -19.5 -45.5t-46.5 -19.5q-25 0 -44.5 19.5t-19.5 45.5zM215 780v139h548q124 -83 124 -267v-652h-138v683q0 97 -49 97h-485z" />
<glyph unicode="&#xfb49;" horiz-adv-x="1312" d="M10 517q0 27 19.5 45t44.5 18q66 0 66 -63q0 -26 -19.5 -45.5t-46.5 -19.5q-25 0 -44.5 19.5t-19.5 45.5zM266 343v576h137v-650q0 -74 15.5 -102.5t68.5 -28.5h176v781h136v-781h174q55 0 73 30q14 25 14 99v652h140v-571q0 -228 -178 -348h-588q-168 108 -168 343z" />
<glyph unicode="&#xfb4a;" horiz-adv-x="1140" d="M10 517q0 27 19.5 45t44.5 18q66 0 66 -63q0 -26 -19.5 -45.5t-46.5 -19.5q-25 0 -44.5 19.5t-19.5 45.5zM205 0v138h149v458q0 65 66 184h-133v139h742v-919h-140v780h-395v-780h-289z" />
<glyph unicode="&#xfb4b;" horiz-adv-x="629" d="M0 1190q0 27 19.5 45t45.5 18q65 0 65 -63q0 -26 -19.5 -45t-45.5 -19t-45.5 19t-19.5 45zM206 780v139h313v-919h-137v780h-176z" />
<glyph unicode="&#xfb4c;" horiz-adv-x="1518" d="M62 823l76 156h483l-81 -156h-478zM753 0v138h495v555q0 87 -34 87h-461v139h523q112 -62 112 -221v-382q0 -95 -79 -178h156v-138h-712z" />
<glyph unicode="&#xfb4d;" horiz-adv-x="1520" d="M62 823l76 156h483l-81 -156h-478zM753 0v138h478q56 0 56 111v434q0 55 -10.5 76t-45.5 21h-478v139h521q65 -25 109.5 -91t44.5 -155v-404q0 -176 -156 -269h-519z" />
<glyph unicode="&#xfb4e;" horiz-adv-x="1581" d="M62 823l76 156h483l-81 -156h-478zM788 0v138h503q54 0 54 111v434q0 55 -10.5 76t-43.5 21h-368v-265h201v-136h-336v540h551q65 -25 106.5 -91t41.5 -155v-404q0 -176 -156 -269h-543z" />
<glyph unicode="&#xfb4f;" horiz-adv-x="1801" d="M70 780v422h138v-283h545v-139q0 -99 -46 -196l-288 -612l-122 57l345 719q2 4 3 18q0 14 -11 14h-564zM925 853l103 89l439 -530q32 0 54.5 30t22.5 85v392h142v-234q0 -207 -157 -350l228 -270l-104 -89l-484 589q-47 0 -66 -40q-15 -32 -15 -67v-458h-139v290 q0 219 156 351z" />
</font>
</defs>
</svg>
